Witamy guest (Zaloguj) Strona Główna Kontakt Regulamin Forum
User: Hasło:
Stwórz konto Odzyskiwanie hasła

Facebook

Kategorie
Filmy :
 » Filmy DVD-R1183  
 » Filmy VCD/SVCD2  
 » Filmy BluRay/x264/HDTV5929  
 » Filmy DivX/XviD55529  
 » Filmy RMVB1221  
 » Filmy ENG2393  
 » Filmy 3D32  
Seriale :
 » Seriale Polskie2486  
 » Seriale Zagraniczne17927  
 » Seriale ENG3512  
Anime :
 » Anime Pl7  
 » Anime87  
Dla Dzieci :
 » Bajki Pl/Eng443  
Muzyka :
 » Muzyka Polska/Zagraniczna9635  
 » Soundtracki22  
 » Teledyski/Koncerty523  
Gry :
 » Gry PC10541  
 » Gry PS2/PS3/PSP392  
 » Gry Xbox289  
 » Gry - Inne Konsole38  
GSM/PDA :
 » Tapety GSM/PDA4  
 » Programy GSM/PDA276  
 » Filmy GSM/PDA1  
 » Dzwonki GSM/PDA9  
 » Gry GSM/PDA69  
Ksiazki/Czasopisma :
 » E-Booki8956  
 » Audio-Booki615  
 » Czasopisma847  
 » Komiksy792  
Programy :
 » Windows3814  
 » Linux103  
 » Macintosh18  
Inne :
 » Śmieszne31  
 » Tapety104  
 » Sport601  
 » Pozostale99  
Erotyka :
 » Czasopisma26  
 » Zdjęcia 753  
 » Filmy79479  
 » Gry 12  
 » Hentai+181  

Designated Survivor S01E08 The Results [1080p WEB DL H 264 AC3] [Lektor PL] [ENG+Napisy PL]

Kategoria: Seriale Zagraniczne
Wystawil:  Magnat
Data: 26/12/2016
Rozmiar: 1.77 GB
Seedow: 2
Leecherow: 0
Pobrano: ---

Uaktualnij


Pobierz Torrent
produkcja: USA
gatunek: Thriller, Polityczny
reżyseria: Paul A. Edwards, Michael Katleman, Paul McGuigan
scenariusz: David Guggenheim, Jon Harmon Feldman, Michael Gunn
zdjęcia: Adam Suschitzky, Cort Fey, M. David Mullen
muzyka: Sean Callery, Robert Lydecker
czas trwania: ok. 42 min.

Opis:

Trzymający w napięciu thriller polityczny. Po ataku terrorystycznym na waszyngtońskie elity losy Ameryki znajdują się w rękach nisko postawionego sekretarza gabinetu.

Obsada:

Kiefer Sutherland - Tom Kirkman
Natascha McElhone - Alex Kirkman
Adan Canto - Aaron Shore
Italia Ricci - Emily Rhodes
LaMonica Garrett - Mike Ritter
Tanner Buchanan - Leo Kirkman
Kal Penn - Seth Wright
Maggie Q - Hannah Wells
Ashley Zukerman - Peter MacLeish

Dane techniczne:

Format : Matroska
Format version : Version 4 / Version 2
File size : 1.77 GiB
Duration : 41mn 38s
Overall bit rate : 6 078 Kbps
Encoded date : UTC 2016-12-25 13:50:25

Video
ID : 1
Format : AVC
Format/Info : Advanced Video Codec
Format profile : High@L4.0
Format settings, CABAC : Yes
Format settings, ReFrames : 4 frames
Codec ID : V_MPEG4/ISO/AVC
Bit rate : 5 189 Kbps
Width : 1 920 pixels
Height : 1 080 pixels
Display aspect ratio : 16:9
Frame rate mode : Variable
Color space : YUV
Chroma subsampling : 4:2:0
Bit depth : 8 bits
Scan type : Progressive
Color primaries : BT.709
Transfer characteristics : BT.709
Matrix coefficients : BT.709

Audio 1
ID : 2
Format : AC-3
Format/Info : Audio Coding 3
Mode extension : CM (complete main)
Format settings, Endianness : Big
Codec ID : A_AC3
Duration : 41mn 38s
Bit rate mode : Constant
Bit rate : 384 Kbps
Channel(s) : 2 channels
Channel positions : Front: L R
Sampling rate : 48.0 KHz
Bit depth : 16 bits
Compression mode : Lossy
Stream size : 114 MiB (6%)
Language : Polish
Default : Yes
Forced : No

Audio 2
ID : 3
Format : AC-3
Format/Info : Audio Coding 3
Mode extension : CM (complete main)
Format settings, Endianness : Big
Codec ID : A_AC3
Duration : 41mn 38s
Bit rate mode : Constant
Bit rate : 384 Kbps
Channel(s) : 6 channels
Channel positions : Front: L C R, Side: L R, LFE
Sampling rate : 48.0 KHz
Bit depth : 16 bits
Compression mode : Lossy
Stream size : 114 MiB (6%)
Language : English
Default : No
Forced : No

Text 1
ID : 4
Format : UTF-8
Codec ID : S_TEXT/UTF8
Codec ID/Info : UTF-8 Plain Text
Language : Polish
Default : Yes
Forced : No

Text 2
ID : 5
Format : UTF-8
Codec ID : S_TEXT/UTF8
Codec ID/Info : UTF-8 Plain Text
Language : Polish
Default : No
Forced : No
Szczegoly torrenta
Info Hash
b604e4ed6940085679e0b406a0e24c0b5c097823
Tracker
http://agusiq-HellTorrents.com:6969/announce [EXTERNAL]
Uaktualnienie
18/08/2017 16:27:35 (Jezeli nie widac seeda kliknij na [uaktualnij] by odswiezyc statystyki).
Pokaz/Ukryj Pliki:
1 file
Ocena:
N/A
Komentarze




deadsoldier2611/01/2017 21.30.42
no właśnie dźwięk się rozjeżdża
Rutra6826/12/2016 18.18.43
Przesunięty dzwięk


Wstecz