Witamy guest (Zaloguj) Strona Główna Kontakt Regulamin Forum
User: Hasło:
Stwórz konto Odzyskiwanie hasła

Facebook

Kategorie
Filmy :
 » Filmy DVD-R1923  
 » Filmy VCD/SVCD75  
 » Filmy BluRay/x264/HDTV5642  
 » Filmy DivX/XviD65405  
 » Filmy RMVB6142  
 » Filmy ENG2358  
 » Filmy 3D25  
Seriale :
 » Seriale Polskie2600  
 » Seriale Zagraniczne17745  
 » Seriale ENG3507  
Anime :
 » Anime Pl139  
 » Anime1265  
Dla Dzieci :
 » Bajki Pl/Eng1200  
Muzyka :
 » Muzyka Polska/Zagraniczna18038  
 » Soundtracki299  
 » Teledyski/Koncerty2001  
Gry :
 » Gry PC11940  
 » Gry PS2/PS3/PSP1156  
 » Gry Xbox1154  
 » Gry - Inne Konsole456  
GSM/PDA :
 » Tapety GSM/PDA104  
 » Programy GSM/PDA385  
 » Filmy GSM/PDA122  
 » Dzwonki GSM/PDA112  
 » Gry GSM/PDA243  
Ksiazki/Czasopisma :
 » E-Booki9626  
 » Audio-Booki884  
 » Czasopisma1117  
 » Komiksy850  
Programy :
 » Windows11429  
 » Linux474  
 » Macintosh97  
Inne :
 » Śmieszne93  
 » Tapety2394  
 » Sport1282  
 » Pozostale246  
Erotyka :
 » Czasopisma126  
 » Zdjęcia 1534  
 » Filmy59077  
 » Gry 67  
 » Hentai+1853  

Awantura o Basię S01E10 *1995* [TVRip Xvid up] [AC3] [Film PL]

Kategoria: Seriale Polskie
Wystawil:  torentup
Data: 08/01/2017
Rozmiar: 150.50 MB
Seedow: 3
Leecherow: 1
Pobrano: ---

Uaktualnij


Pobierz Torrent
=====================
INFO
================
produkcja: Polska
gatunek: Dla dzieci, Familijny
reżyseria Kazimierz Tarnas
scenariusz Tomasz Piotrowski, Kazimierz Tarnas
zdjęcia Grzegorz Kędzierski
muzyka Stanislas Syrewicz
czas trwania: 104 min

=====================
OPIS
====================
Piętnastoletnia Basia dowiaduje się, że państwo Olszowscy nie są jej prawdziwymi rodzicami. Dziewczyna pragnie dowiedziec się w jaki sposób trafiła do przybranej rodziny. Poszukiwanie tożsamości będzie przyczyną wielu awantur. W finale zwycięża miłość i przyjaźń.
=====================
OBSADA
====================
Hanna Śleszyńska : Marcysia
Anna Seniuk : Doktorowa Budzisz
Piotr Fronczewski : wujek Olszowski
Gustaw Holoubek : Profesor Somer
Radosław Pazura : aktor
Krzysztof Kowalewski : nauczyciel Geografii
Olgierd Łukaszewicz : Ojciec Basi
Jerzy Zelnik : Gaston Dumauriac
Kazimierz Kaczor : Doktor
Stanisława Celińska : Czerwony Kapelusz
Dorota Chotecka-Pazura : aktorka
Anna Powierza : Kicia
Maria Gładkowska : Stanisława Olszańska
Igor Śmiałowski : profesor Mendelsohn
Nina Roguż : koleżanka Basi

=====================
DANE TECHNICZNE
=====================

Format                         : AVI
Format/Info                    : Audio Video Interleave
File size                      : 148 MiB
Duration                       : 26mn 8s
Overall bit rate               : 790 Kbps

Video
ID                             : 0
Format                         : MPEG-4 Visual
Format settings, BVOP          : Yes
Format settings, QPel          : No
Format settings, GMC           : No warppoints
Format settings, Matrix        : Default (H.263)
Codec ID                       : DIVX
Codec ID/Info                  : Project Mayo
Codec ID/Hint                  : DivX 4
Duration                       : 26mn 8s
Bit rate                       : 673 Kbps
Width                          : 640 pixels
Height                         : 464 pixels
Display aspect ratio           : 1.379
Frame rate                     : 25.000 fps
Color space                    : YUV
Chroma subsampling             : 4:2:0
Bit depth                      : 8 bits
Scan type                      : Progressive
Compression mode               : Lossy
Bits/(Pixel*Frame)             : 0.091
Stream size                    : 126 MiB (85%)

Audio
ID                             : 1
Format                         : MPEG Audio
Format version                 : Version 1
Format profile                 : Layer 3
Codec ID                       : 55
Codec ID/Hint                  : MP3
Duration                       : 26mn 7s
Bit rate mode                  : Constant
Bit rate                       : 112 Kbps
Channel(s)                     : 2 channels
Sampling rate                  : 44.1 KHz
Compression mode               : Lossy
Stream size                    : 20.9 MiB (14%)
Alignment                      : Split accross interleaves
Interleave, duration           : 1000 ms (25.01 video frames)
Szczegoly torrenta
Info Hash
8e75a46cfca073e51d4617c9c7e0a6b66c11abc7
Tracker
http://tracker.HellTorrents.com:8089/announce [EXTERNAL]
Uaktualnienie
28/02/2017 17:10:01 (Jezeli nie widac seeda kliknij na [uaktualnij] by odswiezyc statystyki).
Pokaz/Ukryj Pliki:
1 file
Ocena:
N/A
Komentarze


Brak komentarzy...


Wstecz