Witamy guest (Zaloguj) Strona Główna Kontakt Regulamin Forum
User: Hasło:
Stwórz konto Odzyskiwanie hasła

Facebook

Kategorie
Filmy :
 » Filmy DVD-R1897  
 » Filmy VCD/SVCD75  
 » Filmy BluRay/x264/HDTV5309  
 » Filmy DivX/XviD63438  
 » Filmy RMVB6127  
 » Filmy ENG2355  
 » Filmy 3D25  
Seriale :
 » Seriale Polskie2413  
 » Seriale Zagraniczne16687  
 » Seriale ENG3507  
Anime :
 » Anime Pl139  
 » Anime1265  
Dla Dzieci :
 » Bajki Pl/Eng1187  
Muzyka :
 » Muzyka Polska/Zagraniczna17701  
 » Soundtracki299  
 » Teledyski/Koncerty1992  
Gry :
 » Gry PC11492  
 » Gry PS2/PS3/PSP1156  
 » Gry Xbox1152  
 » Gry - Inne Konsole456  
GSM/PDA :
 » Tapety GSM/PDA104  
 » Programy GSM/PDA375  
 » Filmy GSM/PDA122  
 » Dzwonki GSM/PDA112  
 » Gry GSM/PDA242  
Ksiazki/Czasopisma :
 » E-Booki9508  
 » Audio-Booki766  
 » Czasopisma1101  
 » Komiksy840  
Programy :
 » Windows11225  
 » Linux474  
 » Macintosh97  
Inne :
 » Śmieszne93  
 » Tapety2394  
 » Sport1272  
 » Pozostale246  
Erotyka :
 » Czasopisma126  
 » Zdjęcia 1530  
 » Filmy46766  
 » Gry 67  
 » Hentai+1853  

Piper [2016] [BRRip 2160p x265 HEVC by alE13 AC3] [ENG]

Kategoria: Filmy ENG
Wystawil:  Magnat
Data: 11/11/2016
Rozmiar: 935.68 MB
Seedow: 5
Leecherow: 5
Pobrano: ---

Uaktualnij


Pobierz Torrent
http://www.filmweb.pl/film/Piper-2016-768113
http://www.imdb.com/title/tt5613056/

reżyseria: Alan Barillaro
scenariusz:     Alan Barillaro
gatunek: Animacja,Krótkometrażowy
produkcja: USA
premiera: 16-06-2016
czas:           6mn 5s

opis:

A mother bird tries to teach her little one how to find food by herself. In the process, she encounters a traumatic experience that she must overcome in order to survive.

Matka małego ptaszka próbuje nauczyć swoje maleństwo jak znaleźć pożywienie samemu.W tym procesie, spotyka traumatyczne doświadczenie, które musi sam pokonać, aby przetrwać.

http://i.imgur.com/8oQdqff.jpg
http://i.imgur.com/Vx6O0qn.jpg
http://i.imgur.com/Cq2ZGs4.jpg

obsada: Piper

dane techniczne:

Piper (2016)-*censored*).mkv
Format                      : Matroska
Format version              : Version 4 / Version 2
File size                   : 930 MiB
Duration                    : 6 min 5 s
Overall bit rate            : 21.3 Mb/s
Movie name                  : Piper (2016)-*censored*
Encoded date                : UTC 2016-11-10 09:15:44
Writing application         : mkvmerge v8.1.0 ('Psychedelic Postcard') 64bit
Writing library             : libebml v1.3.1 + libmatroska v1.4.2
Attachments                 : cower2.jpg

Video
ID                          : 1
Format                      : HEVC
Format/Info                 : High Efficiency Video Coding
Codec ID                    : V_MPEGH/ISO/HEVC
Duration                    : 6 min 5 s
Bit rate                    : 20.7 Mb/s
Width                       : 3 840 pixels
Height                      : 2 160 pixels
Display aspect ratio        : 16:9
Frame rate mode             : Constant
Frame rate                  : 23.976 (24000/1001) FPS
Bits/(Pixel*Frame)          : 0.104
Stream size                 : 902 MiB (97%)
Title                       : Piper (2016)-*censored*
Default                     : Yes
Forced                      : No

Audio
ID                          : 2
Format                      : AC-3
Format/Info                 : Audio Coding 3
Mode extension              : CM (complete main)
Format settings, Endianness : Big
Codec ID                    : A_AC3
Duration                    : 6 min 5 s
Bit rate mode               : Constant
Bit rate                    : 640 kb/s
Channel(s)                  : 6 channels
Channel positions           : Front: L C R, Side: L R, LFE
Sampling rate               : 48.0 kHz
Frame rate                  : 31.250 FPS (1536 spf)
Bit depth                   : 16 bits
Compression mode            : Lossy
Stream size                 : 27.9 MiB (3%)
Title                       : Piper (2016)-*censored*_AC3
Language                    : English
Default                     : Yes
Forced                      : No
Szczegoly torrenta
Info Hash
72c2075ff164f30c2157e07f59137d8039114ec6
Tracker
http://tracker.HellTorrents.com/announce [EXTERNAL]
Uaktualnienie
16/01/2017 19:16:00 (Jezeli nie widac seeda kliknij na [uaktualnij] by odswiezyc statystyki).
Pokaz/Ukryj Pliki:
13 pliki
Ocena:
N/A
Komentarze


Brak komentarzy...


Wstecz