Witamy guest (Zaloguj) Strona Główna Kontakt Regulamin Forum
User: Hasło:
Stwórz konto Odzyskiwanie hasła

Facebook

Kategorie
Filmy :
 » Filmy DVD-R1898  
 » Filmy VCD/SVCD75  
 » Filmy BluRay/x264/HDTV5342  
 » Filmy DivX/XviD63765  
 » Filmy RMVB6127  
 » Filmy ENG2355  
 » Filmy 3D25  
Seriale :
 » Seriale Polskie2442  
 » Seriale Zagraniczne16853  
 » Seriale ENG3507  
Anime :
 » Anime Pl139  
 » Anime1265  
Dla Dzieci :
 » Bajki Pl/Eng1187  
Muzyka :
 » Muzyka Polska/Zagraniczna17714  
 » Soundtracki299  
 » Teledyski/Koncerty1992  
Gry :
 » Gry PC11517  
 » Gry PS2/PS3/PSP1156  
 » Gry Xbox1152  
 » Gry - Inne Konsole456  
GSM/PDA :
 » Tapety GSM/PDA104  
 » Programy GSM/PDA375  
 » Filmy GSM/PDA122  
 » Dzwonki GSM/PDA112  
 » Gry GSM/PDA242  
Ksiazki/Czasopisma :
 » E-Booki9508  
 » Audio-Booki773  
 » Czasopisma1102  
 » Komiksy840  
Programy :
 » Windows11250  
 » Linux474  
 » Macintosh97  
Inne :
 » Śmieszne93  
 » Tapety2394  
 » Sport1272  
 » Pozostale246  
Erotyka :
 » Czasopisma126  
 » Zdjęcia 1530  
 » Filmy48496  
 » Gry 67  
 » Hentai+1853  

Niezłomny Unbroken *2014* [DVDRip RMVB Złośnicaa] [Lektor PL]

Kategoria: Filmy RMVB
Wystawil:  Magnat
Data: 03/12/2016
Rozmiar: 451.21 MB
Seedow: 3
Leecherow: 2
Pobrano: ---

Uaktualnij


Pobierz Torrent
produkcja: USA
premiera: 17 listopada 2014 - Świat
gatunek: Biograficzny, Dramat, Wojenny
reżyseria: Angelina Jolie
scenariusz: Ethan Coen, Joel Coen

Jako chłopak Louis sprawiał mnóstwo kłopotów, ale za radą starszego brata skoncentrował się na bieganiu, co doprowadziło go do Olimpiady w Berlinie. Kiedy wybuchła II wojna światowa, Louis poszedł do wojska. Ocalawszy cudem z katastrofy lotniczej spędził wraz z dwoma towarzyszami broni 47 ciężkich dni dryfując po oceanie w maleńkiej tratwie. Wyłowiony przez japońską marynarkę wojenną trafił do obozu jenieckiego. Gdy rozpoznano w nim olimpijczyka, trafił w ręce sadystycznego oprawcy. Niewiarygodna i inspirująca prawdziwa historia o potędze ludzkiego ducha.

Jack O`Connell ... Louis Zamperini
Domhnall Gleeson ... Russell Allen "Phil" Phillips
Garrett Hedlund ... John Fitzgerald
Miyavi ... Mutsushiro Watanabe

Video
ID : 1
Format : RealVideo 4
Codec ID : RV40
Codec ID/INFO : Based on AVC (H.264), Real Player 9
Duration : 2h 17mn
Bit rate : 382 Kbps
Width : 640 pixels
Height : 272 pixels
Display aspect ratio : 2.35:1
Frame rate : 23.976 fps
Bits/(Pixel*Frame) : 0.091
Stream size : 375 MiB (83%)

Audio
ID : 0
Format : Cooker
Codec ID : cook
Codec ID/INFO : Based on G.722.1, Real Player 6
Duration : 2h 17mn
Bit rate : 64.1 Kbps
Channel count : 2 channels
Sampling rate : 44.1 KHz
Bit depth : 16 bits
Stream size : 63.0 MiB (14%)
Szczegoly torrenta
Info Hash
46ad8aa3966219ddd11c351459fa92241df20a37
Tracker
http://tracker.HellTorrents.com:8089/announce [EXTERNAL]
Uaktualnienie
24/01/2017 07:09:06 (Jezeli nie widac seeda kliknij na [uaktualnij] by odswiezyc statystyki).
Pokaz/Ukryj Pliki:
5 pliki
Ocena:
N/A
Komentarze


Brak komentarzy...


Wstecz