Witamy guest (Zaloguj) Strona Główna Kontakt Regulamin Forum
User: Hasło:
Stwórz konto Odzyskiwanie hasła

Facebook

Kategorie
Filmy :
 » Filmy DVD-R1142  
 » Filmy VCD/SVCD2  
 » Filmy BluRay/x264/HDTV5026  
 » Filmy DivX/XviD50386  
 » Filmy RMVB1211  
 » Filmy ENG2360  
 » Filmy 3D30  
Seriale :
 » Seriale Polskie2503  
 » Seriale Zagraniczne15060  
 » Seriale ENG3508  
Anime :
 » Anime Pl5  
 » Anime87  
Dla Dzieci :
 » Bajki Pl/Eng393  
Muzyka :
 » Muzyka Polska/Zagraniczna9314  
 » Soundtracki22  
 » Teledyski/Koncerty499  
Gry :
 » Gry PC9010  
 » Gry PS2/PS3/PSP389  
 » Gry Xbox288  
 » Gry - Inne Konsole38  
GSM/PDA :
 » Tapety GSM/PDA4  
 » Programy GSM/PDA255  
 » Filmy GSM/PDA1  
 » Dzwonki GSM/PDA9  
 » Gry GSM/PDA68  
Ksiazki/Czasopisma :
 » E-Booki8850  
 » Audio-Booki529  
 » Czasopisma623  
 » Komiksy723  
Programy :
 » Windows3452  
 » Linux103  
 » Macintosh18  
Inne :
 » Śmieszne28  
 » Tapety102  
 » Sport480  
 » Pozostale99  
Erotyka :
 » Czasopisma26  
 » Zdjęcia 730  
 » Filmy65316  
 » Gry 12  
 » Hentai+180  

Niezłomny Unbroken *2014* [DVDRip RMVB Złośnicaa] [Lektor PL]

Kategoria: Filmy RMVB
Wystawil:  Magnat
Data: 03/12/2016
Rozmiar: 451.21 MB
Seedow: 2
Leecherow: 0
Pobrano: ---

Uaktualnij


Pobierz Torrent
produkcja: USA
premiera: 17 listopada 2014 - Świat
gatunek: Biograficzny, Dramat, Wojenny
reżyseria: Angelina Jolie
scenariusz: Ethan Coen, Joel Coen

Jako chłopak Louis sprawiał mnóstwo kłopotów, ale za radą starszego brata skoncentrował się na bieganiu, co doprowadziło go do Olimpiady w Berlinie. Kiedy wybuchła II wojna światowa, Louis poszedł do wojska. Ocalawszy cudem z katastrofy lotniczej spędził wraz z dwoma towarzyszami broni 47 ciężkich dni dryfując po oceanie w maleńkiej tratwie. Wyłowiony przez japońską marynarkę wojenną trafił do obozu jenieckiego. Gdy rozpoznano w nim olimpijczyka, trafił w ręce sadystycznego oprawcy. Niewiarygodna i inspirująca prawdziwa historia o potędze ludzkiego ducha.

Jack O`Connell ... Louis Zamperini
Domhnall Gleeson ... Russell Allen "Phil" Phillips
Garrett Hedlund ... John Fitzgerald
Miyavi ... Mutsushiro Watanabe

Video
ID : 1
Format : RealVideo 4
Codec ID : RV40
Codec ID/INFO : Based on AVC (H.264), Real Player 9
Duration : 2h 17mn
Bit rate : 382 Kbps
Width : 640 pixels
Height : 272 pixels
Display aspect ratio : 2.35:1
Frame rate : 23.976 fps
Bits/(Pixel*Frame) : 0.091
Stream size : 375 MiB (83%)

Audio
ID : 0
Format : Cooker
Codec ID : cook
Codec ID/INFO : Based on G.722.1, Real Player 6
Duration : 2h 17mn
Bit rate : 64.1 Kbps
Channel count : 2 channels
Sampling rate : 44.1 KHz
Bit depth : 16 bits
Stream size : 63.0 MiB (14%)
Szczegoly torrenta
Info Hash
46ad8aa3966219ddd11c351459fa92241df20a37
Tracker
http://tracker.HellTorrents.com:8089/announce [EXTERNAL]
Uaktualnienie
24/04/2017 11:25:50 (Jezeli nie widac seeda kliknij na [uaktualnij] by odswiezyc statystyki).
Pokaz/Ukryj Pliki:
5 pliki
Ocena:
N/A
Komentarze


Brak komentarzy...


Wstecz