Witamy guest (Zaloguj) Strona Główna Kontakt Regulamin Forum
User: Hasło:
Stwórz konto Odzyskiwanie hasła

Facebook

Kategorie
Filmy :
 » Filmy DVD-R1183  
 » Filmy VCD/SVCD2  
 » Filmy BluRay/x264/HDTV6264  
 » Filmy DivX/XviD56915  
 » Filmy RMVB1221  
 » Filmy ENG2396  
 » Filmy 3D32  
Seriale :
 » Seriale Polskie2576  
 » Seriale Zagraniczne18820  
 » Seriale ENG3512  
Anime :
 » Anime Pl7  
 » Anime87  
Dla Dzieci :
 » Bajki Pl/Eng447  
Muzyka :
 » Muzyka Polska/Zagraniczna9750  
 » Soundtracki22  
 » Teledyski/Koncerty535  
Gry :
 » Gry PC10918  
 » Gry PS2/PS3/PSP393  
 » Gry Xbox289  
 » Gry - Inne Konsole38  
GSM/PDA :
 » Tapety GSM/PDA4  
 » Programy GSM/PDA277  
 » Filmy GSM/PDA1  
 » Dzwonki GSM/PDA9  
 » Gry GSM/PDA70  
Ksiazki/Czasopisma :
 » E-Booki8977  
 » Audio-Booki638  
 » Czasopisma856  
 » Komiksy792  
Programy :
 » Windows3899  
 » Linux103  
 » Macintosh18  
Inne :
 » Śmieszne33  
 » Tapety104  
 » Sport602  
 » Pozostale100  
Erotyka :
 » Czasopisma26  
 » Zdjęcia 756  
 » Filmy85846  
 » Gry 13  
 » Hentai+181  

Niezłomny Unbroken *2014* [DVDRip RMVB Złośnicaa] [Lektor PL]

Kategoria: Filmy RMVB
Wystawil:  Magnat
Data: 03/12/2016
Rozmiar: 451.21 MB
Seedow: 0
Leecherow: 2
Pobrano: ---

Uaktualnij


Pobierz Torrent
produkcja: USA
premiera: 17 listopada 2014 - Świat
gatunek: Biograficzny, Dramat, Wojenny
reżyseria: Angelina Jolie
scenariusz: Ethan Coen, Joel Coen

Jako chłopak Louis sprawiał mnóstwo kłopotów, ale za radą starszego brata skoncentrował się na bieganiu, co doprowadziło go do Olimpiady w Berlinie. Kiedy wybuchła II wojna światowa, Louis poszedł do wojska. Ocalawszy cudem z katastrofy lotniczej spędził wraz z dwoma towarzyszami broni 47 ciężkich dni dryfując po oceanie w maleńkiej tratwie. Wyłowiony przez japońską marynarkę wojenną trafił do obozu jenieckiego. Gdy rozpoznano w nim olimpijczyka, trafił w ręce sadystycznego oprawcy. Niewiarygodna i inspirująca prawdziwa historia o potędze ludzkiego ducha.

Jack O`Connell ... Louis Zamperini
Domhnall Gleeson ... Russell Allen "Phil" Phillips
Garrett Hedlund ... John Fitzgerald
Miyavi ... Mutsushiro Watanabe

Video
ID : 1
Format : RealVideo 4
Codec ID : RV40
Codec ID/INFO : Based on AVC (H.264), Real Player 9
Duration : 2h 17mn
Bit rate : 382 Kbps
Width : 640 pixels
Height : 272 pixels
Display aspect ratio : 2.35:1
Frame rate : 23.976 fps
Bits/(Pixel*Frame) : 0.091
Stream size : 375 MiB (83%)

Audio
ID : 0
Format : Cooker
Codec ID : cook
Codec ID/INFO : Based on G.722.1, Real Player 6
Duration : 2h 17mn
Bit rate : 64.1 Kbps
Channel count : 2 channels
Sampling rate : 44.1 KHz
Bit depth : 16 bits
Stream size : 63.0 MiB (14%)
Szczegoly torrenta
Info Hash
46ad8aa3966219ddd11c351459fa92241df20a37
Tracker
http://tracker.HellTorrents.com:8089/announce [EXTERNAL]
Uaktualnienie
22/09/2017 13:35:51 (Jezeli nie widac seeda kliknij na [uaktualnij] by odswiezyc statystyki).
Pokaz/Ukryj Pliki:
5 pliki
Ocena:
N/A
Komentarze


Brak komentarzy...


Wstecz