Witamy guest (Zaloguj) Strona Główna Kontakt Regulamin Forum
User: Hasło:
Stwórz konto Odzyskiwanie hasła

Facebook

Kategorie
Filmy :
 » Filmy DVD-R1897  
 » Filmy VCD/SVCD75  
 » Filmy BluRay/x264/HDTV5309  
 » Filmy DivX/XviD63438  
 » Filmy RMVB6127  
 » Filmy ENG2355  
 » Filmy 3D25  
Seriale :
 » Seriale Polskie2412  
 » Seriale Zagraniczne16686  
 » Seriale ENG3507  
Anime :
 » Anime Pl139  
 » Anime1265  
Dla Dzieci :
 » Bajki Pl/Eng1187  
Muzyka :
 » Muzyka Polska/Zagraniczna17701  
 » Soundtracki299  
 » Teledyski/Koncerty1992  
Gry :
 » Gry PC11492  
 » Gry PS2/PS3/PSP1156  
 » Gry Xbox1152  
 » Gry - Inne Konsole456  
GSM/PDA :
 » Tapety GSM/PDA104  
 » Programy GSM/PDA375  
 » Filmy GSM/PDA122  
 » Dzwonki GSM/PDA112  
 » Gry GSM/PDA242  
Ksiazki/Czasopisma :
 » E-Booki9508  
 » Audio-Booki766  
 » Czasopisma1101  
 » Komiksy840  
Programy :
 » Windows11225  
 » Linux474  
 » Macintosh97  
Inne :
 » Śmieszne93  
 » Tapety2394  
 » Sport1272  
 » Pozostale246  
Erotyka :
 » Czasopisma126  
 » Zdjęcia 1530  
 » Filmy46703  
 » Gry 67  
 » Hentai+1853  

Kubo i dwie struny 3D Kubo and the Two Strings *2016* [1080p 3D Half Over Under DTS AC3 5 1 BluRay x264 LEON 345] [Dubbing i napisy PL]

Kategoria: Filmy 3D
Wystawil:  Magnat
Data: 18/12/2016
Rozmiar: 7.61 GB
Seedow: 15
Leecherow: 12
Pobrano: ---

Uaktualnij


Pobierz Torrent
Kubo i dwie struny 3D - Kubo and the Two Strings *2016*3D.Half.Over-Under.1080p.BDRip.DTS.AC3 5.1 - Leon 345
================================================
Film w wersji 3D Over-Under.
Do odtworzenia filmu WYMAGANY odpowiedni sprzęt (TV 3D).
================================================
Dopasowane rozmiarem pod DVD9 ( do nagrania na płytke jeśli jeszcze ktoś to robi)
-------------------------------------------------------

gatunek: Animacja,Familijny,Fantasy
produkcja: USA
premiera: 2 grudnia 2016 (Polska) 13 sierpnia 2016 (świat)
reżyseria: Travis Knight
scenariusz: Marc Haimes,Chris Butler

http://imdb.com/title/tt4302938/

Kubo jest dobrym, pokornym chłopcem, który u boku matki mieszka w skromnej wiosce na końcu świata. Każdy dzień toczy się tym samym spokojnym rytmem - do czasu, kiedy chłopca odwiedza duch przeszłości, który zmienia jego przeznaczenie. Aby przetrwać, Kubo musi odnaleźć magiczną zbroję należącą do jego ojca - największego samuraja, jakiego kiedykolwiek nosiła Ziemia. W poszukiwaniach towarzyszą mu dobre duchy i pradawne bóstwa, które wspierają go magicznymi mocami. Tak Kubo wyrusza w fascynującą, pełną niebezpieczeństw podróż śladami swej rodziny. Podróż ta pozwoli mu poczuć dumę z tego, kim jest i uwierzyć, że możliwe jest wszystko.

Charlize Theron...Monkey (voice)
Art Parkinson...Kubo (voice)
Ralph Fiennes...Moon King (voice)
George Takei...Hosato (voice)
Cary-Hiroyuki Tagawa...Hashi (voice)
Brenda Vaccaro...Kameyo (voice)
Rooney Mara...The Sisters (voice)
Matthew McConaughey...Beetle (voice)

General

Format : Matroska
Format version : Version 2
File size : 7.61 GiB
Duration : 1h 41mn
Overall bit rate : 10.7 Mbps
Movie name : KUBO.TWO.STRINGS.2016.3D.HOU.1080p.Leon345
Encoded date : UTC 2016-11-30 12:28:09
Writing application : mkvmerge v5.7.0 ('The Whirlwind') built on Jul 8 2012 20:08:51
Writing library : libebml v1.2.3 + libmatroska v1.3.0

Video
ID : 1
Format : AVC
Format/Info : Advanced Video Codec
Format profile : High@L4.1
Format settings, CABAC : Yes
Format settings, ReFrames : 4 frames
Codec ID : V_MPEG4/ISO/AVC
Duration : 1h 41mn
Bit rate : 8 849 Kbps
Width : 1 920 pixels
Height : 1 080 pixels
Display aspect ratio : 16:9 (OAR 2.39:1)
Frame rate mode : Constant
Frame rate : 23.976 (24000/1001) fps
Color space : YUV
Chroma subsampling : 4:2:0
Bit depth : 8 bits
Scan type : Progressive
Bits/(Pixel*Frame) : 0.178
Stream size : 6.15 GiB (81%)
Writing library : x264
Encoding settings : cabac=1 / ref=4 / deblock=1:-1:-1 / rc=2pass
Default : Yes
Forced : No

Audio #1
ID : 2
Format : AC-3
Format/Info : Audio Coding 3
Mode extension : CM (complete main)
Format settings, Endianness : Big
Codec ID : A_AC3
Duration : 1h 41mn
Bit rate mode : Constant
Bit rate : 448 Kbps
Channel(s) : 6 channels
Channel positions : Front: L C R, Side: L R, LFE
Sampling rate : 48.0 KHz
Frame rate : 31.250 fps (1536 spf)
Compression mode : Lossy
Stream size : 326 MiB (4%)
Title : AC3 5.1 Dubbing PL
Language : Polish
Default : Yes
Forced : No

Audio #2
ID : 3
Format : DTS
Format/Info : Digital Theater Systems
Mode : 16
Format settings, Endianness : Big
Codec ID : A_DTS
Duration : 1h 41mn
Bit rate mode : Constant
Bit rate : 755 Kbps
Channel(s) : 6 channels
Channel positions : Front: L C R, Side: L R, LFE
Sampling rate : 48.0 KHz
Frame rate : 93.750 fps (512 spf)
Bit depth : 24 bits
Compression mode : Lossy
Stream size : 548 MiB (7%)
Title : DTS 5.1 Dubbing PL
Language : Polish
Default : No
Forced : No

Audio #3
ID : 4
Format : AC-3
Format/Info : Audio Coding 3
Mode extension : CM (complete main)
Format settings, Endianness : Big
Codec ID : A_AC3
Duration : 1h 41mn
Bit rate mode : Constant
Bit rate : 640 Kbps
Channel(s) : 6 channels
Channel positions : Front: L C R, Side: L R, LFE
Sampling rate : 48.0 KHz
Frame rate : 31.250 fps (1536 spf)
Compression mode : Lossy
Stream size : 465 MiB (6%)
Title : AC3 5.1 ENG
Language : English
Default : No
Forced : No

Text #1
ID : 5
Format : PGS
Muxing mode : zlib
Codec ID : S_HDMV/PGS
Codec ID/Info : Picture based subtitle format used on BDs/HD-DVDs
Title : napisy 3D PL
Language : Polish
Default : No
Forced : No

Text #2
ID : 6
Format : PGS
Muxing mode : zlib
Codec ID : S_HDMV/PGS
Codec ID/Info : Picture based subtitle format used on BDs/HD-DVDs
Title : napisy 3D ENG
Language : English
Default : No
Forced : No

Text #3
ID : 7
Format : UTF-8
Codec ID : S_TEXT/UTF8
Codec ID/Info : UTF-8 Plain Text
Title : napisy 2D PL
Language : Polish
Default : No
Forced : No

Text #4
ID : 8
Format : UTF-8
Codec ID : S_TEXT/UTF8
Codec ID/Info : UTF-8 Plain Text
Title : napisy 2D ENG
Language : English
Default : No
Forced : No
Szczegoly torrenta
Info Hash
2fdbf2cd65dad77fad2f79ad122125f779a376db
Tracker
http://agusiq-HellTorrents.com:6969/announce [EXTERNAL]
Uaktualnienie
16/01/2017 17:10:28 (Jezeli nie widac seeda kliknij na [uaktualnij] by odswiezyc statystyki).
Pokaz/Ukryj Pliki:
3 pliki
Ocena:
N/A
Komentarze


Brak komentarzy...


Wstecz